Image 01
profile-image

galicia360

Hernan Lorenzo
'Q' DVD-Author

Video Apps by QDVDAuthor 81 comments

Great news! Thank you! Qdvdauthor rocks! - Mar 28 2008
openSUSE

Various KDE Stuff by binner 59 comments

In spite of some things I don't like, I know they are contributing in some ways to the community.

What scares me about mono is this letter: http://www.gnu.org/software/dotgnu/danger.html

Kde/gnome are GPL (free software licences)

Mono relies on .NET(.net is from Microsoft, one day they could claim to own all the code writen with mono)

DotGNU (is free software GPL,LGPL)

Correct me if I'm wrong. - Oct 30 2007
openSUSE

Various KDE Stuff by binner 59 comments

It was my favourite distribution till the MS-Novel deal happen. Before that they worked for the community; now they work against community.

Look at the facts! FSF is working on GNASH and DOTGNU; whilst they work on Moonlight and Mono (Remember Mono works upon .NET). What about the M$ - Novel deal; clearly they are working with M$ against community. Ahh what about Novel position about OOXML? mmmmhhh Maybe Novel was bought by M$. Now I use Debian. - Sep 06 2007
'Q' DVD-Author

Video Apps by QDVDAuthor 81 comments

[SOLVED] Atention Debian Etch users!

1- If you have this problem, it means you already have qdvdauthor installed; then you have to follow this steps to solve the problem:

*from konsole logg as root; then apt-get remove ffmpeg qdvdauthor.
*then from /usr/share delete qdvdauthor.
*then from http://packages.debian.org/cgi-bin/download.pl?arch=i386&file=pool%2Fmain%2Ff%2Fffmpeg%2Fffmpeg_0.cvs20060823-8_i386.deb&md5sum=927acf36c2887fd0137aa0eb0df31725&arch=i386&type=main
download the package ffmpeg and install it from the .deb.(do not install it from konsole or it won't work!).
*After you got installed ffmpeg form the .deb package; go to konsole and install dvdauthor (apt-get install dvdauthor).

It should work but only if you followed this steps.

2- If you don't have dvdauthor installed in your system; the first thing you have to do is download the package ffmpeg form the address above. And after that install dvdauthor. Other wise you will have problems with ffmpeg.


- Jun 29 2007
'Q' DVD-Author

Video Apps by QDVDAuthor 81 comments

Hi everyone; I have a problem with Qdvdauthor, Mandvd; it seems to be a generalized problem with Debian. I got the latest version of Qdvdauthor, I got ffmpeg,lame, .... I don't know how to fix it. Do other Linux distributions have the same problem?

Thanks in advance!

This is what my log file shows.

[dvd-slideshow] ###############
[dvd-slideshow] Creating ac3 audio...
FFmpeg version SVN-rUNKNOWN, Copyright (c) 2000-2007 Fabrice Bellard, et al.
configuration: --prefix=/usr --libdir=${prefix}/lib --shlibdir=${prefix}/lib --incdir=${prefix}/include/ffmpeg --enable-shared --enable-libmp3lame --enable-gpl --enable-libfaad --mandir=${prefix}/share/man --enable-libvorbis --enable-pthreads --enable-libfaac --enable-xvid --enable-libdts --enable-amr_nb --enable-amr_wb --enable-pp --enable-libogg --enable-libgsm --enable-x264 --enable-liba52 --enable-libtheora --extra-cflags=-Wall -g -fPIC -DPIC --cc=ccache cc --enable-swscaler
libavutil version: 49.4.0
libavcodec version: 51.40.2
libavformat version: 51.11.0
built on Mar 29 2007 11:08:52, gcc: 4.1.2 20061115 (prerelease) (Debian 4.1.1-21)
Input #0, wav, from 'pipe:':
Duration: N/A, bitrate: 1536 kb/s
Stream #0.0: Audio: pcm_s16le, 48000 Hz, stereo, 1536 kb/s
Output #0, ac3, to '/tmp/Unnamed/dvd-slideshow_temp_22294/audio1.ac3':
Stream #0.0: Audio: ac3, 48000 Hz, 5:1, 0 kb/s
Stream mapping:
Stream #0.0 -> #0.0
Error while opening codec for output stream #0.0 - maybe incorrect parameters such as bit_rate, rate, width or height
[dvd-slideshow] ERROR during ffmpeg execution!
[dvd-slideshow] see /tmp/Unnamed/dvd-slideshow.log for details
[dvd-slideshow] cleanup...
- Jun 28 2007
Patagonia Glaciar Francisco Moreno

Wallpaper Other by Tian242 3 comments

Hi mate the name of the glaciar is not Francisco Moreno; it is Perito Moreno!

Change it!

Anyway, good upload! - Nov 24 2006
Nature Wallpapers from Argentina

Wallpaper Other by galicia360 5 comments

Sorry about that; they were my first upload. I hope you can get 'em now. Have fun! - Nov 23 2006
Nature Wallpapers from Argentina

Wallpaper Other by galicia360 5 comments

Your first question: neuquen? Yes!

About the comment the links are broken, I tried out again and I haven't found anything brong with them; I'll wait to see if another users found the same problem. Thanks anyway. - Nov 23 2006
KShutdown

Utilities by kdt 81 comments

Very nice application; It would be nice to have it incrusted in the logout menu of kde. - Nov 22 2006
openSUSE

Various KDE Stuff by binner 59 comments

It's not a freetype problem; all is about patents! Have a look at this:http://en.opensuse.org/Optimal_Use_of_MS_TrueType_Core_Fonts_for_a_KDE_Desktop_on_SuSE

and this:

http://en.opensuse.org/TrueType

I hope It'll be helpfull. - Nov 22 2006